<?xml version="1.0" standalone="no"?>
<!DOCTYPE svg PUBLIC "-//W3C//DTD SVG 1.1//EN" "http://www.w3.org/Graphics/SVG/1.1/DTD/svg11.dtd" >
<svg xmlns="http://www.w3.org/2000/svg" xmlns:xlink="http://www.w3.org/1999/xlink" version="1.1">
<metadata>
Created by FontForge 20190801 at Sun Oct 21 14:34:17 2018
 By Jimmy Wärting
Copyright (c) 2018 by Jamaludin. All rights reserved.
</metadata>
<defs>
<font id="Serenity-Bold" horiz-adv-x="155" >
  <font-face 
    font-family="Serenity"
    font-weight="400"
    font-stretch="normal"
    units-per-em="1000"
    panose-1="0 0 0 0 0 0 0 0 0 0"
    ascent="773"
    descent="-227"
    x-height="142"
    cap-height="453"
    bbox="-356.308 -294 825.769 575.083"
    underline-thickness="50"
    underline-position="-100"
    unicode-range="U+000D-007A"
  />
<missing-glyph 
 />
    <glyph glyph-name=".notdef" 
 />
    <glyph glyph-name="NULL" horiz-adv-x="0" 
 />
    <glyph glyph-name="NULL" horiz-adv-x="0" 
 />
    <glyph glyph-name="nonmarkingreturn" unicode="&#xd;" 
 />
    <glyph glyph-name="space" unicode=" " 
 />
    <glyph glyph-name="h" unicode="h" horiz-adv-x="328" 
d="M329 143q6 6 11 -2q4 -7 -2 -10q-5 -3 -25.5 -17.5t-46 -29.5t-51 -25t-39.5 -5q-18 6 -16 23t7 34q3 12 6 24.5t-1 18.5q-1 1 -3 2.5t-7 3.5q-16 3 -42.5 -11.5t-55.5 -38t-56.5 -51.5t-43.5 -52q0 -2 -2 -2h-1q0 -1 -1 -2h-4q-2 0 -2 1h-1v1h-1v1h-1v1q-1 0 -1 1v1v4
q13 46 39.5 104.5t59 119.5t67 119t63.5 105t48 76.5t22 33.5q6 7 11 2q8 -4 2 -10q0 -1 -16.5 -26t-42 -66t-57 -94t-63 -109.5t-59 -113t-45.5 -104.5q19 22 44 45.5t51 42.5t50 30t42 7q13 -3 19 -13q7 -11 4.5 -25.5t-7.5 -29.5q-5 -17 -6.5 -26.5t5.5 -11.5
q9 -3 26.5 3.5t39 18.5t43.5 26t39 26z" />
    <glyph glyph-name="i" unicode="i" 
d="M-16 38q-10 0 -15 4t-7 8q-5 9 -0.5 23t12 27.5t15.5 25t11 15.5q6 7 11 2q6 -5 2 -11q-17 -21 -29 -44t-8 -31q3 -3 8 -3h1q22 0 51 13.5t55.5 30t45 30.5t18.5 15q8 4 12 -2t-2 -11q-2 -1 -21.5 -15.5t-46.5 -31.5t-57.5 -31t-54.5 -14h-1zM15 169q-1 1 -1.5 1t-1.5 1
q-2 1 -2 4t4 3q7 5 15 5q7 1 7 -5v-2l-2 -1q-2 -2 -4 -6l-2 -2h-5q-4 0 -8 2z" />
    <glyph glyph-name="j" unicode="j" horiz-adv-x="73" 
d="M12 -19q8 -2 6 -9q-2 -8 -9 -6q-23 4 -44.5 5t-41.5 -1q-26 -43 -56 -86.5t-60 -80t-58.5 -62t-51.5 -32.5q-9 -3 -16 -3q-11 0 -21 6q-14 10 -16 30.5t9 48.5q10 26 33.5 57t57 59t76.5 49.5t93 28.5q31 50 54 91.5t32 62.5q1 3 4 4.5t5 -0.5q9 -4 5 -10q-8 -20 -29 -59
t-51 -87q20 1 39.5 0t39.5 -6zM-308 -277q20 6 45.5 30t53.5 58t56.5 74.5t54.5 81.5q-45 -8 -83.5 -28.5t-68.5 -47t-51 -54.5t-31 -51q-9 -23 -9 -39t11 -22q7 -5 22 -2zM30 180q2 -2 2 -3q0 -3 -3 -3q-2 -2 -3.5 -2.5t-3.5 -1.5t-5 -1t-6 5q-2 4 -2 7v1v1q1 0 1 1l12 -3
q5 0 8 -1z" />
    <glyph glyph-name="k" unicode="k" horiz-adv-x="272" 
d="M273 145q6 3 10 -4q4 -8 -4 -10q-3 -2 -29 -13t-63 -24t-77 -23.5t-71 -10.5q-20 0 -33 6q-9 5 -14 11q-14 -37 -21 -67q0 -6 -7 -6h-2q-8 2 -6 9q10 47 34 105t54 117.5t62.5 116.5t59.5 101.5t45.5 73t21.5 32.5q4 7 11 2q6 -3 2 -10q-1 -1 -24.5 -38t-57.5 -94.5
t-72.5 -128t-69.5 -138.5q18 14 39.5 27t41.5 23t35 16.5t20 8.5q8 4 10 -4q3 -8 -4 -10q-26 -11 -56 -26t-55 -32t-40.5 -33.5t-11.5 -29.5q3 -8 12 -12q17 -8 52 -2.5t74 17.5t76 26.5t58 23.5z" />
    <glyph glyph-name="l" unicode="l" horiz-adv-x="240" 
d="M31 13h-8t-8 1q-8 2 -15.5 6.5t-12 14.5t-5 25t4.5 38q2 9 5 19t7 21v1q13 37 35.5 80t50 85.5t58 81t60.5 67.5t57 44.5t47 11.5q16 -5 17 -21q1 -17 -12.5 -46.5t-38 -64.5t-56.5 -73t-67 -72t-70.5 -61t-66.5 -41q-8 -20 -11 -36q-12 -58 16 -65q18 -4 41.5 2.5t48 19
t48.5 28.5t42.5 30t30 23.5t12.5 9.5q5 5 11 -1t-1 -11q-2 -2 -25 -20.5t-56 -40t-70.5 -39t-68.5 -17.5zM297 493q-17 0 -40 -15.5t-49 -42t-53 -60.5t-52 -72t-46.5 -77t-35.5 -74q30 16 64 43.5t66 60.5t61.5 68t51 66.5t33.5 57t11 38.5q0 7 -4 7h-7z" />
    <glyph glyph-name="m" unicode="m" horiz-adv-x="416" 
d="M428 141q5 -5 -1 -11q-8 -6 -28.5 -21.5t-44.5 -30.5t-47.5 -25.5t-36.5 -6.5q-14 5 -13.5 20t4.5 31q2 8 3.5 17t-0.5 13l-2 2q-17 2 -39 -17.5t-42 -40.5q-20 -20 -34 -33t-26 -11q-2 2 -4.5 3.5t-4.5 3.5q-5 9 0.5 27.5t16.5 49.5q4 9 8.5 20t8 22t5 19t-0.5 11
q-14 1 -39 -16.5t-54 -44.5t-58.5 -58.5t-51.5 -57.5q-1 -3 -6 -3h-3q-5 4 -5 10q8 24 19 46.5t21.5 40.5t18 29t8.5 12q2 2 5 3t5 -1q7 -4 3 -11q-1 0 -16.5 -24.5t-31.5 -57.5q18 20 43 46t50.5 49t49.5 38.5t40 15.5h3q8 -2 12 -7q6 -11 0.5 -32t-18.5 -54q-3 -9 -7 -19
t-7 -19t-5 -16t0 -10q5 0 18.5 14t24.5 25q11 12 23 24t24.5 21.5t24.5 14.5t24 3q7 -1 12 -8q5 -8 4 -19.5t-5 -24.5q-2 -9 -4 -19t3 -12q7 -2 24 5t37 19.5t41.5 28t39.5 29.5q8 4 11 -2z" />
    <glyph glyph-name="n" unicode="n" horiz-adv-x="289" 
d="M-59 2q-2 0 -2.5 0.5t-1.5 0.5q-6 3 -4 10q7 24 18 46.5t21.5 40t18 29t8.5 12.5q4 6 11 2q7 -6 2 -11q0 -1 -16 -25t-32 -57q19 20 44 46.5t51.5 49.5t50.5 38.5t40 14.5q10 -1 14 -9q8 -11 3 -28.5t-12 -40.5q-3 -7 -6 -16.5t-5 -18t-2.5 -15t2.5 -7.5q9 -4 27 3t39 19
t42 27t38 29q4 4 10 -1q5 -6 0 -11q-5 -4 -24.5 -19t-45 -31t-51 -26t-41.5 -4t-11.5 28t13.5 48q5 15 10 32.5t1 23.5h-1q-1 0 -1 0.5t-1 0.5q-13 1 -38 -17t-53.5 -45t-58 -58t-51.5 -58q-3 -3 -6 -3z" />
    <glyph glyph-name="o" unicode="o" horiz-adv-x="241" 
d="M-9 35q-12 0 -21 4q-21 9 -19 34q1 20 17.5 42.5t41.5 30.5q1 4 2 7.5t2 7.5q5 16 15.5 30.5t24 25t29 14.5t31.5 0q20 -6 23 -26q5 -20 -7.5 -47t-32.5 -53q35 2 75 12.5t69 26.5q8 4 11 -3t-4 -10q-17 -9 -37.5 -17t-42.5 -13.5t-44 -8.5t-41 -4l-13.5 -13.5
t-14.5 -12.5q-33 -27 -64 -27zM10 129q-19 -8 -30.5 -25t-12.5 -31q-1 -15 10 -19q17 -8 37 1.5t31 19.5q9 6 17 14q-13 1 -24 5q-25 9 -28 35zM97 217q-21 0 -40.5 -18.5t-27.5 -42.5q-2 -4 -3 -10.5t-0.5 -13.5t4.5 -13.5t13 -10.5q6 -2 14.5 -3t18.5 -1q23 26 36 53.5
t10 44.5q-3 10 -13 14q-2 1 -5.5 1h-6.5z" />
    <glyph glyph-name="p" unicode="p" horiz-adv-x="334" 
d="M-183 -240h-1l-4 2q-4 2 -2 7v1q7 31 24 70t38 80t43.5 80.5t41 71t31.5 51.5t15 23q5 5 11 2q7 -4 2 -12l-12 -18.5t-30 -48.5t-40 -68t-43 -78q30 47 65.5 93.5t72 82t72.5 55.5t67 13q17 -3 22.5 -11t6.5 -16q2 -5 1 -11t-3 -13q42 14 81.5 23t62.5 10q7 0 7 -8
q2 -8 -7 -8q-26 -1 -67.5 -11.5t-85.5 -25.5q-13 -23 -35 -45t-45 -36q-40 -23 -61 -6q-10 9 -7 22q3 9 15.5 19.5t31 20.5t42 19.5t48.5 18.5q9 16 7 29q-1 4 -4 8t-13 7q-26 5 -58 -13t-65.5 -51t-67.5 -76.5t-63 -88t-51.5 -87t-34.5 -72.5q0 -1 -1 -2l-3 -2q0 -1 -1 -1
h-3zM161 87q-42 -16 -72.5 -32.5t-35.5 -28.5v-2t2 -3q13 -10 43 8q17 11 34 26t29 32z" />
    <glyph glyph-name="q" unicode="q" horiz-adv-x="267" 
d="M-25 -291q-2 0 -3 0.5t-2 0.5q-35 6 -47 32q-11 26 0.5 66.5t35.5 87.5q-17 8 -43 10q-7 2 -7 8q0 8 6 8q17 3 34.5 9t36.5 14q27 47 57.5 91t53.5 77l14 21l-36.5 -36.5t-39 -36.5t-38 -28.5t-32.5 -12.5q-14 0 -20 5t-8 9q-4 9 -2 20t7 23t13.5 24t17.5 21q36 35 65 21
q7 -4 3 -10q-4 -7 -10 -4q-13 6 -26.5 -3t-19.5 -15q-20 -18 -29 -39.5t-4 -30.5q0 -1 2 -3t10 -2q12 1 29.5 13t37 28.5t38 35.5t32.5 33q26 26 34 32.5t13 2.5t3 -10t-4 -11q-4 -8 -13.5 -22t-23.5 -34q-20 -29 -46.5 -67t-51.5 -80q47 24 92.5 56t81.5 60.5t58 48.5
t23 20q6 6 11 -1q5 -4 0 -11q-3 -2 -28 -24.5t-64.5 -53.5t-89 -63.5t-99.5 -55.5l-17 -29q20 -11 30.5 -24t15.5 -26q14 -32 8.5 -66.5t-22.5 -55.5q-17 -23 -37 -23zM-27 -110q-23 -45 -34.5 -82t-1.5 -59q9 -20 35 -23q10 -2 16.5 4.5t10.5 11.5q14 17 19.5 47t-7.5 59
q-12 28 -38 42zM-48 -85l14 -4l7 12z" />
    <glyph glyph-name="r" unicode="r" horiz-adv-x="202" 
d="M-58 2q-1 0 -2 0.5t-2 0.5q-6 5 -3 11l65 126q4 7 10 3q8 -3 4 -11l-34 -67q15 17 34 35.5t39.5 34t40.5 25.5t38 11q23 2 37 -15q5 -6 0 -11q-6 -6 -12 0q-9 11 -25 10q-25 -1 -56.5 -24t-59.5 -51t-47.5 -51t-20.5 -24q-2 -3 -6 -3z" />
    <glyph glyph-name="s" unicode="s" horiz-adv-x="191" 
d="M-54 -61q-21 0 -29 16q-3 6 -3.5 18.5t12.5 30.5q18 24 53 51q1 19 4 38.5t11.5 37t23.5 31.5t39 23q7 4 9 -4q3 -8 -4 -10q-39 -14 -51.5 -42.5t-15.5 -61.5q44 31 98 54t100 27q3 1 6 -1t3 -6q0 -8 -7 -8q-24 -2 -50.5 -10t-53 -20t-51.5 -26.5t-46 -29.5v-16
q-1 -21 -2 -38t-7 -29q-14 -25 -39 -25zM-22 34q-26 -20 -38 -39q-15 -20 -9 -32q4 -9 15 -9q15 0 25 17q5 11 6 26.5t1 33.5v3z" />
    <glyph glyph-name="t" unicode="t" horiz-adv-x="85" 
d="M244 304q8 -2 5 -9q-2 -8 -9 -6q-1 0 -37 7.5t-90 14.5q-26 -44 -58 -101t-65 -121t-64 -130.5t-53 -127.5q0 -5 -7 -5h-3q-8 2 -4 10q22 61 52 127t62.5 129t64.5 120.5t58 101.5q-49 6 -103.5 9t-104 -2t-87.5 -19.5t-54 -44.5q-3 -4 -7 -4h-4q-8 4 -3 11
q17 33 58.5 50t94 22t110.5 2t108 -10q23 40 37.5 63t15.5 23q2 4 5 4.5t5 -1.5q7 -3 3 -11q-1 -1 -14 -22t-34 -58q50 -7 83.5 -13.5t38.5 -8.5z" />
    <glyph glyph-name="u" unicode="u" horiz-adv-x="282" 
d="M284 142q6 6 11 -1q2 -2 2 -5.5t-2 -5.5q-77 -71 -120 -67q-18 2 -28 12.5t-17 20.5q-3 4 -6.5 8t-5.5 4q-10 2 -23.5 -9t-28.5 -25q-18 -17 -36.5 -30.5t-37.5 -13.5q-5 0 -8 1q-10 2 -14 6.5t-6 9.5q-4 10 -1 24t9.5 27.5t14 25t12.5 17.5q6 6 11 1q7 -6 2 -11
q-7 -8 -14 -19t-12 -22.5t-7.5 -21.5t-0.5 -16q1 -2 2.5 -3.5t6.5 -2.5q15 -3 33.5 11t35.5 29t33 27.5t31 10.5q7 -1 12.5 -6.5t10.5 -12.5q6 -9 13.5 -17t19.5 -9q36 -4 108 63z" />
    <glyph glyph-name="v" unicode="v" horiz-adv-x="282" 
d="M-11 1q-5 0 -8 2q-7 1 -12 10q-5 11 -2 30t9.5 38.5t13 35.5t9.5 22q4 8 10 4q8 -4 4 -10q-6 -13 -12.5 -30t-11 -33.5t-6.5 -30t1 -19.5q1 -3 2 -3q6 -2 14.5 4t18.5 16t20.5 22t19.5 24q20 25 39.5 46t37.5 27q16 5 29 -1t25 -14q8 -5 17 -10t20 -6.5t24.5 2.5t31.5 16
q8 4 11 -3q4 -5 -2 -11q-21 -14 -38 -18t-30 -2t-23.5 8t-19.5 12q-11 7 -20.5 11.5t-20.5 0.5q-14 -5 -32 -25t-37 -43q-23 -29 -43.5 -50.5t-38.5 -21.5z" />
    <glyph glyph-name="w" unicode="w" horiz-adv-x="401" 
d="M402 143q7 5 12 -2q4 -5 -2 -11q-35 -23 -61.5 -20t-46.5 11q-18 6 -31.5 7.5t-28.5 -14.5l-7 -8q-15 -17 -30 -33t-29 -28t-26.5 -19t-22.5 -5q-9 2 -14 8q-8 12 -5 32t8 44q4 17 7 34.5t0 22.5l-3 2q-3 0 -10 -7.5t-15.5 -19t-17.5 -24t-17 -23.5q-29 -41 -48 -64.5
t-34 -23.5h-2q-11 2 -14 10q-5 10 -1.5 29t11 39t15.5 37.5t11 23.5q2 2 5 3t5 -1q8 -2 4 -10q-8 -14 -15.5 -31.5t-13 -34t-8 -29.5t0.5 -18q0 -2 2 -2q4 -1 12.5 7t18.5 20.5t20.5 27t18.5 26.5q27 40 44.5 61t30.5 19q8 -2 13 -8q6 -10 3.5 -28.5t-7.5 -41.5
q-4 -17 -7.5 -36t1.5 -27q2 -2 4 -2q3 -1 9.5 2t17.5 11.5t27 24.5t39 42q3 3 4.5 5t3.5 4q20 21 39 19t37 -8q20 -8 42 -10.5t51 17.5z" />
    <glyph glyph-name="x" unicode="x" horiz-adv-x="274" 
d="M286 141q7 -3 1 -11q-104 -117 -178 -117q-13 0 -23 3q-20 5 -34 17.5t-24 28.5q-24 -23 -47 -51.5t-41 -60.5q-4 -4 -7 -4q-2 0 -2.5 0.5t-1.5 0.5q-6 5 -3 11q20 34 44 63.5t50 54.5q-12 21 -16.5 38.5t-5.5 19.5q-2 7 6 9t10 -6q0 -1 4 -16t13 -34q20 18 38 32.5
t32.5 24.5t23.5 15.5t10 6.5q8 4 11 -3q4 -6 -3 -11q-15 -9 -32 -21q-14 -11 -33 -25.5t-39 -32.5q9 -14 21.5 -25.5t29.5 -16.5q72 -20 185 110q5 5 11 0z" />
    <glyph glyph-name="y" unicode="y" horiz-adv-x="234" 
d="M179 175q4 -3 4 -8q-7 -26 -27.5 -74.5t-49.5 -105.5q13 2 26 3.5t26 -0.5q3 0 5.5 -2t1.5 -6q0 -3 -2 -5.5t-6 -1.5q-30 1 -60 -6q-21 -40 -44.5 -79t-47.5 -71t-47 -55t-43 -31q-10 -5 -19 -5q-12 0 -20 7q-28 17 -14 61q9 26 30 54.5t51 55t66.5 47t76.5 30.5
q24 47 43.5 89t30.5 72l-3 -1q-26 -23 -52 -45.5t-50 -39t-44 -24.5t-33 -3q-17 6 -20 23q-2 11 1.5 23.5t10.5 24.5t15 22.5t16 17.5q7 5 12 -1q4 -6 -1 -11q-16 -14 -28.5 -36.5t-10.5 -36.5q3 -8 11 -12q10 -4 32 8t46.5 30.5t47.5 39t37 32.5q8 7 14 12t9 7q4 3 9 1z
M-90 -253q18 7 38.5 28t42 50.5t43.5 65t42 73.5q-35 -11 -68 -31t-59.5 -44t-45 -49.5t-25.5 -48.5q-4 -11 -4 -23.5t11 -19.5q9 -7 25 -1z" />
    <glyph glyph-name="z" unicode="z" horiz-adv-x="162" 
d="M120 172q12 -6 12 -20q-2 -15 -27.5 -31.5t-70.5 -40.5q-11 -6 -23.5 -12.5t-24 -13t-19 -12.5t-8.5 -9q3 -4 18.5 -6t37 -2t44 2.5t38.5 6.5q8 4 10 -5q1 -3 -0.5 -6t-5.5 -3q-12 -4 -38.5 -7t-52.5 -3q-20 0 -36.5 2.5t-24.5 8.5q-6 6 -6 14q2 11 22.5 24.5t61.5 34.5
q12 7 27.5 15t29 16.5t23 15.5t9.5 12q0 3 -3 5q-7 3 -20.5 2.5t-28.5 -4.5t-29.5 -10.5t-23.5 -15.5q-6 -6 -11 1q-6 6 1 11q10 10 26.5 17.5t33.5 12t33 4.5t26 -4z" />
    <glyph glyph-name="d" unicode="d" horiz-adv-x="246" 
d="M134 -76h-2q-15 5 -20 20q-24 67 148 364q-42 -58 -81.5 -109.5t-74.5 -89.5t-65.5 -60.5t-54.5 -22.5h-6q-8 1 -13.5 5.5t-8.5 10.5q-5 14 2 35.5t24 44.5q6 7 20 21t35 26t49 19.5t62 1.5q3 0 4 -1q41 52 84 112.5t87 122.5l51 72q2 3 5 6t8 -1q5 -3 4 -7t-14 -24
q-91 -144 -143 -239.5t-77 -154.5t-29.5 -87.5t-0.5 -38.5q3 -8 9 -11q9 -2 5 -10q0 -5 -7 -5zM122 177q-26 0 -47.5 -8t-37.5 -18.5t-26.5 -21t-15.5 -16.5q-17 -21 -22.5 -39t-1.5 -26q2 -5 9 -6q14 -2 31.5 7t38 27t43.5 43.5t48 56.5q-5 0 -9.5 0.5t-9.5 0.5z" />
    <glyph glyph-name="A" unicode="A" horiz-adv-x="617" 
d="M631 141q6 -4 1 -11q-4 -5 -15.5 -19.5t-28.5 -32.5t-38 -37t-42.5 -32t-42 -17.5t-37.5 6.5q-18 11 -17 42t13.5 73t33.5 90t44 95q-42 -61 -94.5 -129t-107 -126.5t-109 -99t-101.5 -47.5q-5 -1 -10 -1.5t-10 -0.5q-38 0 -57 25q-20 29 -9.5 86.5t48.5 130.5
q25 47 57.5 92.5t68 81t72.5 57t71 21.5h1q30 -1 49 -13t30 -26q13 -17 20 -38q2 -8 -6 -10q-7 -2 -10 6q0 1 -3.5 11t-13 22t-25.5 22t-41 10h-1q-31 0 -66 -21.5t-69 -56t-65.5 -78t-54.5 -87.5q-36 -69 -46.5 -122.5t6.5 -77.5t62 -18q35 5 75.5 32t83 67.5t85 90.5
t82 101.5t73.5 100.5t59 87.5t39.5 62.5t15.5 25q3 7 11 3q6 -4 3 -11q-24 -40 -50 -87.5t-50 -95.5t-44 -94.5t-32 -84t-13.5 -63.5t11.5 -34q17 -11 43 1t52.5 35t50 49.5t36.5 43.5q6 6 12 1z" />
    <glyph glyph-name="B" unicode="B" horiz-adv-x="601" 
d="M605 148q7 0 8 -7q0 -8 -8 -8q-61 -5 -137 -29l-2 -8q-4 -25 -23 -52.5t-46.5 -54.5t-61 -51.5t-67 -44t-64.5 -31.5t-54 -14q-2 0 -4.5 -0.5t-4.5 -0.5q-20 0 -29 8t-12 16q-9 20 8 46q16 25 51.5 52.5t82.5 54t101.5 50.5t108.5 41q1 27 -17 45q-23 19 -64 22.5
t-83 -4.5q-11 -3 -22.5 -5.5t-23.5 -4.5q-7 -2 -9 6q-2 7 6 9q11 4 22.5 6.5t23.5 4.5q42 12 75.5 29t57.5 36.5t38.5 40.5t18.5 41q2 11 -0.5 24t-16.5 22q-21 15 -56 4q-41 -12 -92.5 -53.5t-104.5 -103t-103 -137.5t-87 -155q-3 -5 -7 -5q-1 0 -2 1q-2 0 -5 3v2h-1v4
q1 3 11.5 35.5t40.5 97t84.5 162.5t143.5 233q3 6 10 2q7 -3 3 -11q-91 -138 -145.5 -237.5t-84.5 -163.5q39 64 83 122t88 103t86 75.5t78 41.5q41 11 69 -7q32 -21 24 -63q-7 -35 -44 -72.5t-100 -65.5q30 0 55.5 -6.5t42.5 -21.5q23 -20 23 -51q76 25 137 28zM149 -137
q23 2 53 14.5t62.5 31.5t64 42.5t57 49t43.5 50.5t22 47q-53 -17 -105.5 -40t-97.5 -48.5t-78.5 -51.5t-47.5 -49q-13 -19 -7 -32q4 -16 34 -14z" />
    <glyph glyph-name="C" unicode="C" horiz-adv-x="477" 
d="M482 141q4 4 11 0q5 -5 0 -12q-3 -2 -22 -21.5t-50 -47t-71 -58.5t-83 -57.5t-86.5 -44t-81.5 -17.5q-4 0 -7.5 0.5t-7.5 0.5q-57 6 -76 57q-14 36 -5 89t34 110t61.5 113t77.5 100q51 55 97.5 78t84.5 12q17 -5 29 -17.5t17 -30.5q8 -25 1.5 -55t-24.5 -50q-4 -6 -11 -1
q-6 5 0 11q14 17 20 43.5t-2 47.5q-2 11 -10 21.5t-25 15.5q-32 10 -75 -12.5t-90 -73.5q-40 -42 -75.5 -96.5t-59.5 -110t-33.5 -106t2.5 -84.5q16 -40 63 -45q37 -4 80.5 12t87 42.5t85 59t73 60.5t51 47t20.5 20z" />
    <glyph glyph-name="D" unicode="D" horiz-adv-x="628" 
d="M632 143q8 0 8 -7q0 -9 -7 -9q-42 -2 -85 -10t-87 -20q-26 -47 -61.5 -87.5t-74 -72t-76 -52t-67.5 -26.5q-6 -2 -12 -2.5t-11 -0.5q-22 0 -36 11q-22 19 -14 46q8 24 39.5 51t78 53.5t104.5 50t118 41.5q2 3 3.5 6.5t3.5 6.5q48 94 47.5 156.5t-48.5 88.5
q-38 19 -95 13.5t-117.5 -32t-115 -72t-87.5 -105.5q-4 -6 -11 -2t-3 10q34 62 91.5 109t121 74.5t123.5 33.5t100 -15q16 -9 32 -26t22 -48t-3 -78t-43 -114q42 11 83 18.5t79 9.5zM178 -126q28 6 62.5 24.5t70 47t68.5 65.5t59 79q-58 -18 -111.5 -41t-96.5 -47.5t-71 -49
t-34 -44.5q-7 -17 8 -28q7 -7 18.5 -8t26.5 2zM264 300q6 -6 1 -11q-37 -49 -70.5 -101t-61 -102.5t-49.5 -95t-37 -79t-23.5 -54.5t-8.5 -21q-2 -5 -7 -5q-2 0 -3 1q-8 2 -4 10q0 1 8 21.5t23.5 54.5t37.5 79t50 95.5t61.5 103.5t71.5 102q5 6 11 2z" />
    <glyph glyph-name="E" unicode="E" horiz-adv-x="357" 
d="M273 395q49 19 89.5 26.5t70.5 5t49 -12.5t25 -26q4 -11 2 -25t-14 -30t-35 -32t-59 -31q-8 -2 -10 4q-3 7 4 11q61 25 83.5 52.5t14.5 45.5q-4 11 -20 19t-43 9.5t-65 -5.5t-86 -25q-63 -25 -114.5 -56.5t-86 -63.5t-51 -61.5t-10.5 -49.5q2 -8 11.5 -18t35 -16t70 -4.5
t117.5 16.5q7 2 9 -6q2 -7 -5 -9q-48 -14 -87 -34t-67 -42t-45 -44t-21 -41q-6 -22 10 -37q6 -6 23.5 -12.5t52 -6.5t90.5 10t140 37q8 2 10 -6q3 -6 -5 -10q-147 -47 -234 -47q-63 0 -88 24q-22 20 -14 52q7 32 47 71.5t109 71.5q-75 -8 -119.5 3.5t-54.5 43.5q-8 26 10 59
t55 67t90 66.5t116 56.5z" />
    <glyph glyph-name="F" unicode="F" horiz-adv-x="300" 
d="M603 456q9 -4 5 -11q-2 -7 -10 -4q-29 10 -69 12.5t-85 -0.5t-92.5 -10t-90.5 -15q0 -2 -0.5 -2t-0.5 -2q-38 -60 -69 -112.5t-55 -97.5q25 9 54.5 17.5t63 14t69.5 6.5t73 -4q8 0 6 -8q0 -9 -9 -7q-39 6 -77 4t-72.5 -9t-64.5 -16.5t-54 -18.5q-33 -62 -54.5 -108
t-34 -76.5t-17 -46l-4.5 -15.5q0 -6 -7 -6h-2q-8 2 -6 9q0 1 4.5 16t16 44t31 72t49.5 101q-20 -8 -31 -14t-11 -7h-4q-4 0 -7 3q-3 7 3 11q1 0 17 9t45 21q25 46 56.5 100t71.5 118q-33 -6 -61 -12.5t-48.5 -12t-32.5 -9l-12 -3.5h-3q-6 0 -7 6q-2 7 5 9q4 1 33.5 9
t75 18.5t102 20.5t113 15.5t108.5 4.5t89 -14z" />
    <glyph glyph-name="G" unicode="G" horiz-adv-x="515" 
d="M517 148q3 2 6 -0.5t3 -6.5q0 -8 -7 -8q-79 -6 -154 -29q-22 -45 -52.5 -93t-65 -91.5t-70.5 -78.5t-69 -52q-25 -14 -48 -14q-19 0 -33 11q-38 27 -24 76q10 33 41.5 69t78.5 70.5t106 64.5t125 51q17 34 26 62.5t8 48.5q-1 14 -5 17.5t-6 5.5q-9 4 -25 -2.5
t-35.5 -18.5t-41.5 -27.5t-43 -31.5q-25 -18 -49.5 -35.5t-47.5 -31.5t-44 -22.5t-39 -8.5q-25 0 -39 17q-12 15 -12 44q0 26 11 61t30 72t45.5 73.5t56.5 65.5t63.5 46.5t66.5 17.5q37 0 54 -12.5t24 -25.5q13 -24 6 -53.5t-23 -51.5q-4 -5 -11 -2q-5 5 -2 11
q16 22 20.5 47t-4.5 42q-15 29 -64 29q-29 0 -59.5 -16.5t-59 -43t-54 -60.5t-44.5 -69.5t-30 -70t-11 -60.5q0 -22 9 -34q8 -11 27 -11q15 0 35 8.5t42.5 22t46 30.5t46.5 34q26 19 49.5 36t44.5 29t38 16.5t29 -0.5q7 -3 13 -11t8 -25q1 -19 -7.5 -46.5t-22.5 -60.5
q72 21 143 26zM101 -197q30 16 63.5 48t66 73t62 86.5t51.5 87.5q-64 -21 -119.5 -51t-98.5 -62.5t-71 -65.5t-36 -61q-12 -38 17 -60q21 -17 65 5z" />
    <glyph glyph-name="H" unicode="H" horiz-adv-x="622" 
d="M628 148q8 -2 6 -9q-1 -7 -10 -7q-35 8 -67.5 13.5t-63.5 9.5q-22 -48 -43 -97t-39 -94.5t-32 -86t-21 -70.5q0 -7 -7 -7q-2 0 -2 1q-8 2 -6 9q7 31 20.5 71t31.5 85t39 93.5t42 96.5q-75 5 -136 -2t-110 -24q-19 -41 -39 -79.5t-41 -68.5q-62 -92 -111 -92q-10 0 -17 3
q-16 6 -21 23.5t3 42.5q7 21 23 46.5t42.5 50.5t63.5 47.5t85 39.5q20 46 35.5 91.5t25 83t11.5 63t-4 33.5q-7 7 -17 7q-11 0 -25 -8.5t-27.5 -19.5t-25 -23t-17.5 -19q-6 -4 -12 0q-5 5 0 11q1 1 11.5 12.5t26 25t34 25t35.5 11.5q19 0 28 -12q10 -11 9 -38t-9.5 -65
t-24 -82.5t-34.5 -89.5q50 15 111 21.5t134 0.5q25 54 48 103t41.5 87t30.5 62l14 28q4 6 12 3q5 -3 3 -11q0 -1 -11.5 -23.5t-30 -60t-42 -86.5t-48.5 -104q61 -6 128 -21zM138 -8q20 29 37.5 62.5t34.5 68.5q-43 -16 -76 -37t-56.5 -44t-37.5 -46t-20 -42
q-5 -18 -3.5 -30.5t10.5 -15.5q44 -16 111 84z" />
    <glyph glyph-name="I" unicode="I" horiz-adv-x="326" 
d="M370 410q6 -6 1 -11l-18.5 -29t-51.5 -89t-78.5 -153t-99.5 -222q26 0 54 -1t54.5 -2t50 -2.5t41.5 -3.5q7 -2 7 -8q-2 -7 -8 -7h-1q-18 2 -42 3.5t-51.5 2.5t-56 1.5t-54.5 0.5l-16 -38q-3 -5 -7 -5h-4q-6 4 -4 10l13 33q-38 0 -64 -0.5t-27 -0.5q-8 0 -8 8t8 8
q3 0 30.5 0.5t67.5 0.5q54 131 100 226t80 156t53 90.5l19 29.5q4 6 12 2zM572 409q19 -17 20 -39q0 -8 -8 -8t-8 8q-1 13 -15 27q-19 16 -56.5 25t-82 12.5t-91 3t-85 -2.5t-63 -4.5t-25.5 -2.5q-7 0 -9 7q0 7 7 9q3 0 29.5 2.5t66 4.5t87 2t92.5 -4t82.5 -13.5t58.5 -26.5
z" />
    <glyph glyph-name="J" unicode="J" horiz-adv-x="526" 
d="M92 -209q-17 0 -28 5q-25 12 -32.5 37t4.5 59q13 37 47 80t84 82t112 67.5t131 36.5q20 54 23 102t-18 82q-17 28 -49.5 40.5t-74.5 7.5q-36 -4 -76 -22t-77.5 -50t-70 -77.5t-52.5 -104.5q-2 -8 -9 -5q-8 2 -5 10q20 62 53.5 109t73.5 80t82 51.5t80 23.5q46 5 82 -9
t56 -46q23 -36 21 -85t-22 -105q27 2 54.5 0t56.5 -10q3 0 5 -2.5t0 -6.5q-2 -8 -9 -6q-59 14 -113 8q-23 -59 -59.5 -117.5t-81.5 -108.5q-54 -62 -102.5 -94t-85.5 -32zM404 141q-65 -8 -123.5 -36t-105.5 -64.5t-79.5 -77.5t-44.5 -76q-3 -10 -5 -21t-0.5 -21.5
t7.5 -19.5t18 -15q32 -14 85 18t112 99q42 48 77.5 103.5t58.5 110.5z" />
    <glyph glyph-name="K" unicode="K" horiz-adv-x="414" 
d="M664 424q8 4 11 -2q5 -5 -2 -11q-4 -3 -28 -19.5t-62 -41.5t-86.5 -56.5t-102.5 -64t-109 -64t-106 -56.5l-23 -45q63 -11 106 -37t80 -54q18 -14 35.5 -26t36 -21t38 -14t42.5 -4q8 0 8 -8q0 -3 -2 -6t-6 -3h-4q-48 0 -85 21.5t-73 48.5q-18 13 -37.5 26.5t-41.5 25.5
t-48 22t-57 15q-21 -40 -41.5 -77t-38.5 -68t-32 -54t-21 -35q-4 -4 -7 -4q-1 0 -5 2q-6 4 -2 10q28 44 62 103.5t69 124.5q-25 3 -52.5 3t-59.5 -5q-7 0 -9 7q-2 9 7 9q28 4 66.5 18.5t83.5 37.5q25 50 46.5 96.5t35.5 83.5t19 61t-2 30q-11 11 -33 5q-14 -3 -30 -11
t-30 -19t-25 -23.5t-16 -22.5q-4 -8 -11 -4q-6 4 -4 11q6 12 18.5 25.5t28 25.5t33 21.5t34.5 12.5q28 6 45 -8q10 -8 7 -33.5t-15.5 -62.5t-33 -83t-44.5 -94q51 26 105.5 57.5t106.5 63.5t99.5 62.5t83 54t56.5 38t22 15.5zM156 99q-17 -9 -33.5 -16t-30.5 -12
q12 0 24.5 -1t23.5 -3z" />
    <glyph glyph-name="M" unicode="M" horiz-adv-x="843" 
d="M823 374q6 -23 -1 -59t-23.5 -78.5t-39 -88.5t-47.5 -90.5t-50.5 -84t-45.5 -67.5q-2 -3 -6 -3t-5 1q-6 5 -2 11q21 30 46 69.5t49.5 83t47 88.5t38 85.5t22.5 74t2 54.5q-3 15 -16 22q-23 10 -58 -7t-76 -51.5t-85.5 -81t-85.5 -95.5t-76 -94t-58 -77l-2 -2h-1
q-3 -3 -7 -1h-1v1q-1 1 -2 1l-1 1v1q0 1 -0.5 1.5t-0.5 1.5v2q1 0 1 2q18 42 35.5 91.5t29.5 93.5t15 76t-7 40q-2 2 -13 0.5t-37 -22.5q-33 -27 -71.5 -70.5t-77 -93t-74 -100t-63 -91.5t-44.5 -67t-17 -27h-1h-1v-1v-1h-1l-1 -1h-1h-4h-2v1h-1v1h-1v1h-1v1v1h-1v5h1v2
q36 63 72 132t68.5 142.5t58.5 150.5t41 156q2 8 10 6t6 -9q-23 -115 -66 -224t-94 -210q28 40 60 84.5t66 86t67 77.5t62 60q47 38 69 23q14 -10 13.5 -40.5t-9.5 -69.5t-23 -80.5t-27 -74.5q23 30 56.5 72.5t72.5 86.5t80.5 86t81 72t74 44t59.5 2q20 -10 24 -32z" />
    <glyph glyph-name="N" unicode="N" horiz-adv-x="676" 
d="M8 -138q-3 0 -4 1h-1q-5 4 -3 9q0 1 1 1v2l29 50q21 37 44.5 79t47.5 85t47 86t41.5 81.5t32.5 71t19 54.5q2 8 10 6t6 -9q-8 -32 -30 -80.5t-52 -106t-64 -119t-66 -117.5q33 40 77.5 92t95 105.5t103.5 103t102.5 85t92.5 51.5t73 2q25 -10 33 -41q7 -29 -2 -69.5
t-27.5 -84.5t-42.5 -88.5t-45.5 -80.5t-37.5 -59.5t-18 -26.5q-3 -6 -11 -2q-6 4 -1 11q0 1 15 23t36 57t45 79t43 87.5t28.5 83t2.5 66.5q-6 22 -25 31q-29 14 -75.5 -7.5t-101.5 -65t-114.5 -103t-115 -121.5t-103 -119.5t-78.5 -98.5q-1 0 -1 -0.5t-1 -0.5q-2 -3 -5 -3z
" />
    <glyph glyph-name="O" unicode="O" horiz-adv-x="570" 
d="M118 -158q-27 0 -50 10q-30 14 -48 40.5t-20 64.5t13.5 86t52.5 95q-33 30 -46 68q-16 43 -6 89t42 82q38 43 95 58.5t123 0.5q48 -11 83 -39.5t55 -73.5q21 -48 19.5 -104t-24.5 -112q42 7 83.5 16.5t81.5 22.5q8 4 10 -5q1 -3 -0.5 -6t-4.5 -3q-44 -14 -88.5 -24.5
t-88.5 -17.5l-14 -26q-62 -106 -132.5 -164t-135.5 -58zM87 141q41 -31 107 -43q35 -6 86 -4t108 10q25 54 27.5 110t-17.5 103q-36 83 -128 104q-62 14 -114.5 -0.5t-87.5 -53.5q-29 -33 -38 -75t5 -81q12 -35 41 -61q41 50 102 88q8 4 11 -3q2 -2 1 -5t-3 -5
q-60 -38 -100 -84zM78 128q-35 -45 -49.5 -90t-12.5 -81q5 -66 58 -90q25 -11 58.5 -8t72.5 25.5t81.5 68t85.5 119.5l9 15q-56 -8 -105 -9t-85 5q-68 11 -113 45z" />
    <glyph glyph-name="P" unicode="P" horiz-adv-x="497" 
d="M421 469q26 -5 45 -14t32.5 -20t21.5 -23.5t13 -23.5q16 -38 6.5 -85.5t-41.5 -92.5q-28 -40 -69.5 -70.5t-88.5 -51.5t-94.5 -31.5t-86.5 -10.5q-13 0 -24 1t-22 3q-52 -98 -74.5 -157.5t-23.5 -60.5q-2 -5 -7 -5h-2q-8 2 -6 10q1 1 23.5 60.5t73.5 157.5q-35 14 -35 44
q0 32 37 69t100 60q49 77 112 160q4 7 10 1q6 -5 2 -11q-28 -37 -53 -72.5t-47 -69.5q22 6 46.5 9.5t50.5 3.5q8 0 8 -8q0 -7 -8 -7q-31 0 -59 -5t-52 -14q-26 -41 -48 -78t-41 -72q35 -7 85 0.5t102.5 27t100.5 51.5t78 75q29 42 37.5 85t-5.5 78q-23 56 -99 72
q-45 8 -95 -3t-98 -33.5t-89 -54.5t-67 -66q-4 -6 -11 -1q-6 6 -1 11q27 36 69.5 68.5t92.5 56t102 34.5t99 3zM105 69q17 32 36.5 66t42.5 71q-49 -22 -78 -52t-29 -55q0 -19 28 -30z" />
    <glyph glyph-name="Q" unicode="Q" horiz-adv-x="456" 
d="M406 480q36 -16 47.5 -63t-3.5 -117q-11 -53 -36.5 -113.5t-61 -115.5t-79.5 -99t-92 -65q30 -38 79.5 -66.5t125.5 -28.5h2q7 0 9 -8q0 -8 -9 -8h-2q-41 0 -74.5 8.5t-60.5 23t-47.5 33.5t-36.5 40q-29 -9 -55 -9q-68 0 -95 59q-17 34 -17.5 82.5t12.5 101.5t38 106
t60 96q7 10 17 20q21 40 57 75q50 46 108.5 59t113.5 -11zM435 303q14 65 4.5 107t-39.5 55q-36 16 -68.5 15t-59.5 -11t-46.5 -24t-30.5 -24q-6 -6 -11.5 -12t-10.5 -12q35 26 73 34t76 -1q8 0 6 -9q-2 -8 -10 -6q-45 11 -90.5 -6t-87.5 -62q-15 -29 -19 -57.5t4 -51.5
q3 -6 -5 -11q-7 -2 -9 5q-14 35 -1 79q-30 -41 -51.5 -90t-32.5 -97.5t-10.5 -92t15.5 -73.5q24 -50 81 -50q24 0 45 7q-17 25 -28 50.5t-17.5 45.5t-9 32.5t-2.5 13.5q-1 7 6 9q9 0 9 -7q0 -2 3 -15t9 -32.5t16.5 -44t27.5 -48.5q46 19 89 62t78.5 97t60.5 113.5t36 111.5z
" />
    <glyph glyph-name="L" unicode="L" horiz-adv-x="225" 
d="M136 -81q42 12 90.5 23.5t93.5 16t82.5 -3t58.5 -33.5q4 -6 -2 -11q-5 -5 -11 1q-18 23 -53.5 29t-78 1.5t-89 -16t-87.5 -22.5t-68.5 -17.5t-44.5 -6.5q-13 0 -21 5q-6 6 -6 14q0 15 13.5 55t36 93.5t51 114.5t59 118.5t60 106.5t54.5 78q6 6 12 1q6 -6 1 -11
q-25 -30 -55.5 -79.5t-60.5 -107t-58 -117.5t-50 -112t-35 -89.5t-13 -50.5q4 -4 16.5 -3t29.5 4t36.5 8.5t38.5 10.5z" />
    <glyph glyph-name="R" unicode="R" horiz-adv-x="353" 
d="M405 482q36 -12 56.5 -27t30 -31t11 -31t-0.5 -26q-7 -37 -40 -74.5t-84 -69t-117 -55t-139 -32.5q-8 -14 -15 -28t-13 -27q32 -24 73 -51.5t85 -50t89.5 -37.5t86.5 -15q7 0 7 -8t-7 -8q-43 0 -89.5 15t-91.5 38t-86.5 50.5t-74.5 51.5q-28 -58 -40.5 -91.5t-12.5 -35.5
q-3 -5 -8 -5h-2q-7 3 -5 10q0 1 13 36.5t42 95.5q-30 23 -49 39.5t-21 18.5q-6 4 -2 9q2 5 7 5q26 -2 52 -1t52 3q31 57 72 122.5t96 136.5q6 7 11 2q6 -5 2 -11q-53 -68 -92.5 -130.5t-69.5 -116.5q72 10 134 33.5t109.5 54.5t76.5 65t35 64q4 21 -3 36.5t-19.5 27.5
t-29.5 20t-34 14q-35 11 -83.5 2t-96.5 -30t-89 -48.5t-61 -53.5q-6 -6 -11 -1q-3 2 -3.5 5t1.5 5q21 28 64 57t93.5 50.5t101.5 30.5t89 -3zM103 134q-18 -2 -36 -2.5t-37 0.5q9 -8 21.5 -18.5t28.5 -22.5z" />
    <glyph glyph-name="S" unicode="S" horiz-adv-x="225" 
d="M57 -168q-19 0 -33.5 15.5t-20.5 43.5q-3 15 -3 34t5.5 40.5t18 44.5t33.5 45q-11 30 -20.5 60.5t-13.5 60t-1.5 56t16.5 47.5q25 39 69.5 67.5t93.5 44t95 17t75 -14.5q7 -4 15.5 -11.5t13 -19.5t3 -29t-12.5 -40q-4 -6 -11 -3q-7 4 -3 10q27 58 -13 80q-26 15 -69 13
t-89.5 -17.5t-88.5 -42.5t-64 -63q-12 -19 -14.5 -42.5t1 -49.5t12 -54.5t18.5 -56.5q26 24 64.5 45t92.5 35q7 2 10 -6q2 -7 -6 -9q-55 -14 -92.5 -35.5t-63.5 -46.5l6 -15q10 -28 19 -53.5t13.5 -48t4 -41t-8.5 -32.5q-12 -22 -44 -27q-2 -1 -7 -1zM62 38
q-34 -39 -41.5 -78.5t-2.5 -65.5q5 -23 17.5 -35.5t26.5 -10.5q25 5 32 20q14 23 2 66.5t-31 94.5q-1 2 -1 4.5t-2 4.5z" />
    <glyph glyph-name="T" unicode="T" horiz-adv-x="227" 
d="M610 428q3 0 5 -3t1 -6q-2 -8 -10 -6q-71 14 -150.5 13t-155.5 -10q-17 -27 -49.5 -81.5t-69.5 -125t-73.5 -151t-61.5 -160.5q-2 -6 -8 -6h-2q-7 3 -5 10q24 77 58.5 154.5t70.5 146.5t68 124t52 86q-56 -8 -104.5 -17t-85 -17.5t-58 -14.5t-22.5 -6h-2q-7 0 -8 6
q-2 7 6 9q1 0 23.5 6.5t61.5 15.5t90 18.5t109 16.5l12 17q4 6 10 2q7 -4 2 -12q-1 0 -1 -1q-1 -1 -1 -1.5t-1 -1.5q75 8 152.5 8.5t146.5 -13.5z" />
    <glyph glyph-name="U" unicode="U" horiz-adv-x="482" 
d="M573 449q7 -4 2 -11q-33 -53 -69 -116t-69.5 -127t-62.5 -125t-47 -111t-23.5 -84t8.5 -44q10 -7 23 -4t26 11.5t25 20t21 21.5q5 6 12 1q4 -7 0 -11q-30 -35 -52.5 -47.5t-38.5 -12.5q-14 0 -25 9q-16 11 -14.5 41.5t14 73t35 93.5t49 104t54 104t52.5 94
q-30 -37 -66.5 -81.5t-77 -88.5t-82.5 -85t-81.5 -72t-76 -49t-64.5 -16q-28 1 -39 24q-11 22 -3 60t27 82.5t44 91t48 85.5t39.5 64.5t19.5 29.5q2 2 5 3t5 -1q7 -4 2 -11q-15 -22 -35.5 -55.5t-42.5 -72t-43 -79.5t-35 -77.5t-19.5 -66.5t2.5 -46q6 -13 26 -16h5
q29 0 66 21t78 55.5t84 78.5t84 90.5t77 91t63 79.5t43 56.5t17 22.5q4 6 10 2z" />
    <glyph glyph-name="V" unicode="V" horiz-adv-x="449" 
d="M561 491q3 0 5 -3t1 -6q-7 -38 -30.5 -86.5t-56.5 -101t-74 -106.5t-83.5 -102t-84 -87t-76.5 -62q-41 -27 -66 -27h-9q-17 5 -26 19q-9 16 -8 44.5t8.5 63.5t20 75.5t25.5 81.5q11 33 21.5 67t17.5 62.5t8.5 49t-6.5 27.5q-11 10 -29.5 5.5t-39 -16t-38.5 -26t-28 -23.5
q-6 -6 -11 1q-6 6 1 10q4 4 22.5 20t42.5 30t49 20t42 -9q19 -18 6 -75t-43 -148q-12 -38 -24 -76.5t-20 -73t-9.5 -61.5t6.5 -41q5 -10 15 -11q8 -2 22.5 2t40.5 22q34 23 75 61t83 85.5t82 100t73 104.5t56 99.5t30 84.5q0 10 9 6z" />
    <glyph glyph-name="W" unicode="W" horiz-adv-x="646" 
d="M680 505q9 -59 -2.5 -122.5t-36.5 -123.5t-60.5 -112.5t-73.5 -89.5q-45 -44 -88 -63t-80 -12q-26 4 -43 30q-12 19 -17 45.5t-5 56.5t3.5 60.5t8.5 56.5q-13 -28 -31 -63.5t-38.5 -71.5t-43 -70.5t-45.5 -61t-45 -43t-42 -16.5q-8 0 -17 3q-14 7 -18 20q-7 16 -2.5 41.5
t16 58t28 70t34.5 76.5q18 40 36 80.5t30 76t15 61.5t-8 37q-11 12 -28 11q-18 -1 -38 -12t-37 -24t-28 -24l-11 -11q-5 -6 -10 -1q-7 5 -1 11l13 13t30 26t39.5 25.5t42.5 12.5q22 0 39 -15q14 -14 13 -41.5t-12.5 -64t-30.5 -79.5t-40 -89q-17 -36 -32.5 -72t-27 -67.5
t-16.5 -56t0 -38.5q3 -7 11 -10q19 -7 42.5 10t49.5 50t52.5 76t50 88t43 86.5t32.5 70.5q2 6 10 4q7 -2 5 -10q0 -1 -3.5 -16.5t-8.5 -40.5t-9 -56t-4.5 -61.5t3 -58t15.5 -45.5q12 -20 33 -23q33 -6 72.5 12t81.5 59q37 36 71.5 87t59 109t35.5 119.5t2 118.5q0 8 7 9
q7 2 9 -6z" />
    <glyph glyph-name="X" unicode="X" horiz-adv-x="554" 
d="M609 485q6 4 10 -3q2 -3 1 -6t-3 -5q-1 0 -19 -11t-47.5 -30.5t-69.5 -46.5t-84.5 -61t-92 -73.5t-93.5 -82.5q13 -28 29.5 -51.5t39.5 -38.5q101 -69 276 67q6 6 10 -2q5 -5 -1 -11q-121 -92 -210 -92q-48 0 -83 25q-24 16 -41.5 39.5t-31.5 52.5q-57 -56 -105 -115
t-80 -120q-1 -4 -7 -4q-1 0 -1.5 0.5t-2.5 0.5q-6 4 -3 11q32 63 83 124t110 118q-15 37 -22.5 77t-10.5 77t-1 66.5t7 46.5q2 8 10 5q7 -2 5 -9q-5 -15 -6.5 -43t1 -62.5t9.5 -72.5t20 -73q69 64 140 119.5t129 96t95.5 63.5t39.5 24z" />
    <glyph glyph-name="Y" unicode="Y" horiz-adv-x="586" 
d="M589 148q3 2 5.5 -0.5t2.5 -6.5q1 -3 -1.5 -5.5t-5.5 -2.5q-82 -6 -166 -35q-23 -47 -53.5 -96.5t-65.5 -95.5t-72 -84.5t-72 -62.5q-47 -31 -81 -31q-17 0 -33 8q-44 23 -34 71q7 35 43 77t91 83.5t123.5 79t141.5 63.5q23 45 34.5 82t9.5 60q-2 11 -5.5 14.5l-5.5 5.5
q-9 4 -26.5 -3.5t-40 -21.5t-48 -32.5t-50.5 -36.5q-27 -20 -53.5 -39t-49.5 -33.5t-43.5 -23.5t-35.5 -9q-26 0 -36 18q-7 12 -6 31.5t11.5 48.5t30.5 69.5t50 93.5q8 13 12 28.5t-4 25.5q-6 7 -16.5 9.5t-23.5 2.5t-27 -3t-27 -7q-21 -8 -34 -17.5t-13 -17.5t-7 -8
q-8 0 -8 8q0 14 15 26.5t41 23.5q15 5 31 8t31.5 3t28.5 -4t21 -13q21 -25 -6 -73q-18 -31 -36.5 -65.5t-32 -66.5t-19.5 -57.5t1 -37.5q6 -10 23 -10q13 0 33 9t42.5 23.5t47.5 32.5t49 36q30 22 57.5 42t50.5 33.5t42 19.5t31 1q7 -2 13 -9.5t8 -23.5q2 -22 -8.5 -57.5
t-30.5 -78.5q40 13 79 21t77 10zM153 -227q32 22 66.5 57.5t67.5 78.5t62.5 90t52.5 92q-71 -26 -136 -63t-115.5 -76.5t-83.5 -78.5t-39 -70q-7 -36 26 -53q37 -19 99 23z" />
    <glyph glyph-name="Z" unicode="Z" horiz-adv-x="414" 
d="M308 171q-49 -30 -103 -64.5t-98 -66.5t-70.5 -57.5t-19.5 -38.5q7 -14 31 -18.5t57 -2t72.5 10t78 17t72.5 20t57 18.5q3 2 5.5 0t4.5 -4q2 -9 -5 -11q-10 -3 -43.5 -14t-78.5 -22.5t-94 -21t-89 -9.5q-30 0 -52 6.5t-30 23.5q-9 16 8.5 39.5t56.5 54t98 68.5t134 85
q45 28 92.5 58t86.5 57t63 49t21 33q-2 11 -19 21t-44 17q-33 7 -75.5 7.5t-84.5 -8t-79 -26t-59 -45.5q-5 -5 -11 -2q-6 6 -1 11q23 31 62 49.5t83.5 27.5t89 8.5t78.5 -7.5q33 -8 52.5 -20.5t23.5 -29.5q3 -14 -14.5 -34t-53 -46.5t-87 -59.5t-116.5 -73z" />
    <glyph glyph-name="a" unicode="a" horiz-adv-x="237" 
d="M-2 56q-14 0 -20 5t-8 10q-7 14 2 33t23 33q16 15 33.5 20t31.5 -2q8 -4 4 -10q-4 -8 -10 -4q-8 3 -15 2t-13.5 -4t-11.5 -7t-8 -6q-14 -14 -19.5 -28t-1.5 -21q3 -6 16 -6q12 1 28.5 11.5t33.5 25.5t32.5 32t27.5 29q19 20 24.5 25t11.5 1q5 -4 3 -10t-6 -13
q-14 -27 -14 -49.5t10 -29.5q9 -6 30 2.5t55 45.5q5 5 11 0q6 -4 1 -11q-23 -25 -40.5 -37t-30.5 -16t-21.5 -2t-13.5 5q-14 10 -16.5 30.5t5.5 45.5q-13 -14 -29.5 -31.5t-34 -32.5t-35 -25t-32.5 -11h-3z" />
    <glyph glyph-name="b" unicode="b" horiz-adv-x="271" 
d="M272 149q7 0 7 -8q0 -7 -7 -7q-28 0 -53.5 -4.5t-48.5 -11.5q-7 -12 -18 -24.5t-23.5 -23.5t-25.5 -20t-23 -14q-26 -13 -37 -4q-10 8 -5 22q7 17 39.5 39t81.5 38q4 7 3 15q0 1 -1 3t-7 4q-11 3 -31 -0.5t-45 -17.5t-52.5 -40.5t-52.5 -69.5l-2 -3h-2l-1 -1h-2
q-1 0 -1.5 0.5t-1.5 0.5t-2 1v1h-1v1h-1v2v4q10 44 33 98t51.5 110t58.5 109.5t55.5 96t43 69.5t19.5 31q4 5 11 2q6 -4 3 -11q-1 -1 -15 -23t-36 -58t-49 -83t-54 -98t-51.5 -102t-39.5 -96q23 29 47 48.5t46.5 30.5t42 14t33.5 -1q12 -3 16 -9.5t4 -11.5v-11q21 6 45 9.5
t49 3.5zM73 50q18 9 38 26t34 34q-38 -15 -62.5 -32.5t-29.5 -29.5q-1 -3 0 -4t5 0t15 6z" />
    <glyph glyph-name="c" unicode="c" horiz-adv-x="204" 
d="M206 141q5 5 11 0q5 -6 0 -11q-22 -21 -56 -41.5t-70.5 -36.5t-69.5 -26t-54 -10q-13 0 -23 8q-8 8 -8 21q0 15 10.5 35t26.5 37t34.5 29t35.5 12q14 0 20.5 -5t8.5 -9q6 -14 -6 -28q-3 -5 -11 -1q-6 5 0 11q4 8 3 11q-3 5 -15 5q-13 0 -29 -10.5t-29.5 -25.5t-23 -32
t-9.5 -29q0 -6 3 -9q2 -2 6 -3t6 -1q19 0 51.5 9.5t67 25.5t67 35t53.5 39z" />
    <glyph glyph-name="g" unicode="g" horiz-adv-x="230" 
d="M171 -19q8 -2 6 -9q-2 -8 -9 -6q-47 9 -88 3q-23 -43 -49 -86.5t-52 -80t-51 -61.5t-46 -32q-8 -3 -15 -3q-10 0 -20 6q-17 11 -20 35.5t10 56.5q10 26 30 55.5t50 55t68.5 45t85.5 25.5q27 52 49.5 98t34.5 73l-27 -25q-18 -18 -38.5 -38t-41 -37t-40 -28t-35.5 -11
q-18 0 -26 7t-11 14q-4 9 -2.5 20t6.5 22t12.5 21.5t16.5 18.5q20 20 41.5 25.5t41.5 -2.5q6 -4 3 -11q-2 -7 -10 -3q-31 13 -66 -20q-17 -16 -25 -35t-4 -30q4 -10 23 -10q13 0 31.5 11t38.5 27.5t39.5 35.5t34.5 34q29 29 39 37t17 4q6 -5 4 -12t-4 -12q0 -1 -6.5 -15
t-18 -37.5t-26.5 -54.5t-33 -65q20 1 40 0t42 -6zM-123 -277q19 6 41.5 29.5t46.5 57t48.5 74t47.5 82.5q-40 -8 -74 -25.5t-61 -40.5t-45.5 -50t-28.5 -52q-11 -26 -10 -45.5t14 -27.5q7 -5 21 -2z" />
    <glyph glyph-name="e" unicode="e" horiz-adv-x="176" 
d="M176 142q5 5 11 -2q3 -6 -2 -11q-2 -1 -17.5 -12t-38.5 -24t-49.5 -23.5t-48.5 -10.5q-5 0 -9.5 1t-9.5 2q-18 6 -23 28q-2 11 1 24t9 26t14.5 24t17.5 18q13 11 23 11.5t16 -1.5q9 -3 9 -14q-1 -14 -22.5 -28t-45.5 -21q-4 -11 -6 -20t0 -17q2 -11 12 -14q15 -5 37.5 1
t45.5 17.5t43.5 24.5t32.5 21zM41 170q-5 -5 -9.5 -10t-9.5 -10q17 7 27.5 15t13.5 13h-4q-10 0 -18 -8z" />
    <glyph glyph-name="f" unicode="f" horiz-adv-x="177" 
d="M180 143q8 2 8 -7q1 -3 -1.5 -5.5t-5.5 -2.5q-53 -5 -108 -22.5t-103 -40.5q-48 -76 -85 -146q14 -12 21.5 -25t11.5 -25.5t4.5 -23t0.5 -17.5q-2 -35 -23 -63t-51 -35q-4 -1 -11 -1q-11 0 -16.5 4.5t-7.5 9.5q-9 19 5.5 64.5t45.5 107.5q-16 12 -41 21q-19 6 -17 23
q1 10 13.5 24t32.5 30t47 32.5t59 31.5q34 54 70.5 107.5t72 99.5t66.5 82.5t55 56.5q7 5 11 -2q5 -4 0 -11q-24 -20 -53.5 -53.5t-62.5 -76t-67 -91.5t-66 -99q47 20 97 34.5t98 18.5zM-92 -171q2 22 -6.5 41t-23.5 34q-29 -57 -43.5 -98t-6.5 -56q1 -2 4 -4.5t14 0.5
q24 5 42 29t20 54zM-127 -71q15 29 32.5 59.5t37.5 62.5q-51 -27 -84 -53t-35 -41q-2 -5 5 -7q25 -8 44 -21z" />
  </font>
</defs>
</svg>
